Loading...
Loading...
Loading...

Great British Railway Journeys S08E08 Chapeltown to Doncaster

seeders: 782
leechers: 300
Great British Railway Journeys S08E08 Chapeltown to Doncaster magnet link

Info Hash: 42B57E4A27B76D4FDFA698ECD087990425E22C4A
Loading...
Great British Railway Journeys S08E08 Chapeltown to Doncaster
  • Downloads 6
  • Added 1 week
  • Quality Good
  • Torrent ID 13174830
  • Note if .torrent file deleted click magnet below
  • Download Magnet
Torrent Info:
• You can easily download Great British Railway Journeys S08E08 Chapeltown to Doncaster Torerent to your PC, MAC, Tablet, Mobile or any other devices.
• HD Quality Torrent Great British Railway Journeys S08E08 Chapeltown to Doncaster
• Your Support Keep WatchTorrentMovie.Us alive.

Torrent Files

Great British Railway Journeys S08E08 Chapeltown to Doncaster (Size: 496.2 MB)
  Great British Railway Journeys S08E08 Chapeltown to Doncaster 496.2 MB

Torrent Description



Great British Railway Journeys S08E08 Chapeltown to Doncaster

From Chapeltown, Michael heads to Wharncliffe Crags, where he plucks up courage to follow in the terrifying footholds of the Victorian daredevil who made rock climbing a sport. The relative calm of academia beckons at Sheffield University but, face to face with a hagfish, Michael's visit to the Alfred Denny Collection proves an eye-opener.

At Conisbrough, Michael learns how Victorians flocked to visit the castle which inspired Sir Walter Scott's immensely popular novel, Ivanhoe. This leg of his journey, following what was once known as the North Country Continental service, finishes in the engineering centre of Doncaster, where Bradshaw's leads him to investigate an enlightened Victorian's school for deaf children.

(with soft subtitles)

First broadcast: 11 January 2017
Duration: 30 minutes

[img https://extraimage.net/images/2017/01/11/c61d12aee467c16c69414f349e19af22.jpg[/img]

Media info:-

General
Format : MPEG-4
Format profile : Base Media
Codec ID : isom (isom/iso2/avc1/mp41)
File size : 495 MiB
Duration : 29mn 0s
Overall bit rate mode : Variable
Overall bit rate : 2 387 Kbps
Writing application : Lavf57.25.100

Video
ID : 1
Format : AVC
Format/Info : Advanced Video Codec
Format profile : [email protected]
Format settings, CABAC : Yes
Format settings, ReFrames : 2 frames
Codec ID : avc1
Codec ID/Info : Advanced Video Coding
Duration : 29mn 0s
Bit rate mode : Variable
Bit rate : 2 288 Kbps
Maximum bit rate : 3 500 Kbps
Width : 1 280 pixels
Height : 720 pixels
Display aspect ratio : 16:9
Frame rate mode : Constant
Frame rate : 25.000 fps
Color space : YUV
Chroma subsampling : 4:2:0
Bit depth : 8 bits
Scan type : Progressive
Bits/(Pixel*Frame) : 0.099
Stream size : 475 MiB (96%)

Audio
ID : 2
Format : AAC
Format/Info : Advanced Audio Codec
Format profile : LC
Codec ID : 40
Duration : 28mn 59s
Bit rate mode : Constant
Bit rate : 93.5 Kbps
Channel(s) : 2 channels
Channel positions : Front: L R
Sampling rate : 48.0 KHz
Frame rate : 46.875 fps (1024 spf)
Compression mode : Lossy
Stream size : 19.4 MiB (4%)




( Tags )





People also Search for: Great British Railway Journeys S08E08 Chapeltown to Doncaster

  • • 1080p Great British Railway Journeys S08E08 Chapeltown to Doncaster Torrent
  • • 720p Great British Railway Journeys S08E08 Chapeltown to Doncaster DVDRip
  • • HD Great British Railway Journeys S08E08 Chapeltown to Doncaster
  • • Dvix/Xvid Great British Railway Journeys S08E08 Chapeltown to Doncaster
  • • Blu-ray Great British Railway Journeys S08E08 Chapeltown to Doncaster

Recently Added Torrents

torrent name size age seed leech
252.21 MB 12 minutes 170 304
720.93 MB 12 minutes 364 67
244.56 MB 12 minutes 257 290
334.33 MB 12 minutes 709 431
1.2 GB 17 minutes 535 356