Loading...
Loading...
Loading...
Loading...
Loading...
Loading...
Loading...
Loading...

Seth Meyers 2017 01 10 Ken Jeong 720p HDTV x264-BRISKET[PRiME]

seeders: 377
leechers: 341
Seth Meyers 2017 01 10 Ken Jeong 720p HDTV x264-BRISKET[PRiME] magnet link

Info Hash: E6231D9EABB463316EC79055AF8CA05EDC614FF7
Loading...
Seth Meyers 2017 01 10 Ken Jeong 720p HDTV x264-BRISKET[PRiME]
  • Downloads 21
  • Added 2 months
  • Quality Good
  • Torrent ID 13174615
  • Note if .torrent file deleted click magnet below
  • Download Magnet
Torrent Info:
• You can easily download Seth Meyers 2017 01 10 Ken Jeong 720p HDTV x264-BRISKET[PRiME] Torerent to your PC, MAC, Tablet, Mobile or any other devices.
• HD Quality Torrent Seth Meyers 2017 01 10 Ken Jeong 720p HDTV x264-BRISKET[PRiME]
• Your Support Keep WatchTorrentMovie.Us alive.

Torrent Files

Seth Meyers 2017 01 10 Ken Jeong 720p HDTV x264-BRISKET[PRiME] (Size: 875.8 MB)
  Seth Meyers 2017 01 10 Ken Jeong 720p HDTV x264-BRISKET[PRiME] 875.8 MB

Torrent Description




Seth.Meyers.2017.01.10.Ken.Jeong.720p.HDTV.x264-BRISKET[PRiME]



Complete name : seth.meyers.2017.01.10.ken.jeong.720p.hdtv.x264-brisket[PRiME].mkv
Format : Matroska
Format version : Version 4 / Version 2
File size : 876 MiB
Duration : 40 min 46 s
Overall bit rate : 3 003 kb/s
Encoded date : UTC 2017-01-11 17:18:35
Writing application : mkvmerge v9.2.0 ('Photograph') 64bit
Writing library : libebml v1.3.3 + libmatroska v1.4.4

Video
ID : 1
Format : AVC
Format/Info : Advanced Video Codec
Format profile : [email protected]
Format settings, CABAC : Yes
Format settings, ReFrames : 5 frames
Codec ID : V_MPEG4/ISO/AVC
Duration : 40 min 46 s
Bit rate : 2 616 kb/s
Width : 1 280 pixels
Height : 720 pixels
Display aspect ratio : 16:9
Frame rate mode : Constant
Frame rate : 59.940 (60000/1001) FPS
Color space : YUV
Chroma subsampling : 4:2:0
Bit depth : 8 bits
Scan type : Progressive
Bits/(Pixel*Frame) : 0.047
Stream size : 763 MiB (87%)
Writing library : x264 core 148 r2744 b97ae06
Encoding settings : cabac=1 / ref=5 / deblock=1:-2:-2 / analyse=0x3:0x113 / me=hex / subme=8 / psy=1 / psy_rd=0.95:0.00 / mixed_ref=1 / me_range=16 / chroma_me=1 / trellis=2 / 8x8dct=1 / cqm=0 / deadzone=21,11 / fast_pskip=1 / chroma_qp_offset=-2 / threads=18 / lookahead_threads=3 / sliced_threads=0 / nr=0 / decimate=1 / interlaced=0 / bluray_compat=0 / constrained_intra=0 / bframes=3 / b_pyramid=2 / b_adapt=1 / b_bias=0 / direct=3 / weightb=1 / open_gop=0 / weightp=2 / keyint=250 / keyint_min=30 / scenecut=40 / intra_refresh=0 / rc_lookahead=250 / rc=crf / mbtree=1 / crf=19.0 / qcomp=0.60 / qpmin=0 / qpmax=69 / qpstep=4 / ip_ratio=1.40 / aq=1:0.60
Default : Yes
Forced : No

Audio
ID : 2
Format : AC-3
Format/Info : Audio Coding 3
Mode extension : CM (complete main)
Format settings, Endianness : Big
Codec ID : A_AC3
Duration : 40 min 46 s
Bit rate mode : Constant
Bit rate : 384 kb/s
Channel(s) : 6 channels
Channel positions : Front: L C R, Side: L R, LFE
Sampling rate : 48.0 kHz
Frame rate : 31.250 FPS (1536 spf)
Compression mode : Lossy
Stream size : 112 MiB (13%)
Language : English
Default : No
Forced : No




Click Image To View Full Size


Click To View Screenshot
Click To View Screenshot
Click To View Screenshot




( Tags )





People also Search for: Seth Meyers 2017 01 10 Ken Jeong 720p HDTV x264-BRISKET[PRiME]

  • • 1080p Seth Meyers 2017 01 10 Ken Jeong 720p HDTV x264-BRISKET[PRiME] Torrent
  • • 720p Seth Meyers 2017 01 10 Ken Jeong 720p HDTV x264-BRISKET[PRiME] DVDRip
  • • HD Seth Meyers 2017 01 10 Ken Jeong 720p HDTV x264-BRISKET[PRiME]
  • • Dvix/Xvid Seth Meyers 2017 01 10 Ken Jeong 720p HDTV x264-BRISKET[PRiME]
  • • Blu-ray Seth Meyers 2017 01 10 Ken Jeong 720p HDTV x264-BRISKET[PRiME]

Recently Added Torrents

torrent name size age seed leech
146.8 MB 15 minutes 246 139
994.4 MB 15 minutes 174 474
1.5 GB 15 minutes 712 146
575.0 MB 15 minutes 510 293
124.6 MB 15 minutes 134 132